<?xml version="1.0" standalone="no"?>
<!DOCTYPE svg PUBLIC "-//W3C//DTD SVG 1.1//EN" "http://www.w3.org/Graphics/SVG/1.1/DTD/svg11.dtd" >
<svg xmlns="http://www.w3.org/2000/svg" xmlns:xlink="http://www.w3.org/1999/xlink" version="1.1">
<metadata>
Created by FontForge 20170731 at Wed Oct 14 22:15:04 2015
 By Aleksey,,,
copyright missing
</metadata>
<defs>
<font id="Brusher-Regular" horiz-adv-x="600" >
  <font-face 
    font-family="Brusher"
    font-weight="400"
    font-stretch="normal"
    units-per-em="1000"
    panose-1="0 0 5 0 0 0 0 0 0 0"
    ascent="800"
    descent="-200"
    x-height="408.5"
    cap-height="761"
    bbox="-150.249 -460.143 797 889.042"
    underline-thickness="50"
    underline-position="-200"
    unicode-range="U+0020-00B1"
  />
<missing-glyph horiz-adv-x="500" 
d="M0 0v700h500v-700h-500zM250 395l170 255h-340zM280 350l170 -255v510zM80 50h340l-170 255zM50 605v-510l170 255z" />
    <glyph glyph-name="f_f.liga" unicode="ff" 
d="M727 253l-4 -24l-185 -111q17 -103 18.5 -188.5t-8 -139.5t-29 -95.5t-38 -62t-41 -33.5t-33 -15.5t-18.5 -3.5h-1v0q-93 1 -74 651l-58 -11q17 -103 18.5 -188.5t-8 -139.5t-28.5 -95.5t-37.5 -61.5t-41.5 -33.5t-33 -16t-18 -3.5h-1v0q-43 1 -62 144.5t-15.5 328.5
t9.5 322t9 162q10 99 20 120q12 23 35 22q33 0 70 -25q32 -21 52 -56q27 -42 36 -105q16 -108 -26 -188q-14 -28 -40 -55q-13 -358 -4 -513q22 52 33 112.5t10.5 109.5t-4 90.5t-8.5 64.5l-5 24l98 16q7 229 14 281q10 99 21 120q11 23 35 22q33 0 69 -25q33 -22 53 -56
q26 -43 35 -105q18 -108 -26 -188q-16 -29 -40 -55q-12 -379 -4 -513q22 52 33 112.5t11 109.5t-3.5 90.5t-8.5 64.5l-5 24zM489 532q-5 -100 -11 -234q31 43 38 101q0 7 1.5 26t-5.5 52t-23 55zM208 634q-9 -185 -11 -234q30 44 38 101v5q0 6 0.5 11.5t0 15t-1.5 19
t-3 20.5t-4.5 21.5t-7.5 21t-11 19.5z" />
    <glyph glyph-name="l_l.liga" unicode="ll" horiz-adv-x="500" 
d="M579 212l28 -11q-4 -14 -19 -48.5t-42 -86t-68.5 -97t-85.5 -61.5q-15 -7 -33 -7q-3 -1 -10 -1v0h-1q-63 0 -74 212q-72 -126 -153 -156q-13 -6 -33 -8q-7 0 -10 -1h-1v0q-29 0 -47.5 47t-23.5 120.5t-6 154t4 159.5t8.5 123t5.5 58q10 99 20 120q12 23 35 22
q33 0 70 -25q32 -21 52 -56q27 -42 36 -105q16 -108 -26 -188q-19 -34 -44 -59q-5 -132 -3 -196q3 -49 13.5 -60.5t35.5 14.5q32 39 65 100q-2 135 17 386q10 98 20 119q12 23 36 22q34 0 69 -24q32 -21 53 -56q26 -45 35 -105q17 -111 -26 -189q-18 -33 -44 -59
q-5 -111 -3 -196q3 -49 13.5 -60.5t35.5 15.5q28 33 53.5 79t36.5 75zM449 557q-10 -133 -15 -240q34 47 42 107q0 7 1.5 26t-5.5 52t-23 55zM178 604q-10 -133 -15 -240q34 47 42 107v5q0 6 0.5 11.5t0 15t-1.5 19t-3 20.5t-4.5 21.5t-7.5 21t-11 19.5z" />
    <glyph glyph-name="t_t.liga" unicode="tt" horiz-adv-x="579" 
d="M681 310l22 -16q-2 -8 -6.5 -23t-20.5 -56.5t-33.5 -80t-46.5 -85t-60 -80t-73 -56.5t-86 -23q-60 3 -77 156q-93 -111 -189 -103q-22 1 -38.5 21t-25.5 58.5t-14 82t-5.5 103.5t1 111t4.5 116q-6 0 -9 -1q-8 0 -21.5 -0.5t-19.5 -0.5q-13 -1 -32 -1q-9 -1 -21 -1h-7
l-3 32q3 0 7 1q7 2 21 3l12 1q12 2 19 3q26 4 41 6q2 0 7.5 0.5t8.5 0.5v11q0 4 3 46q11 203 4 228q7 2 18.5 3.5t40 -1t50 -13t37.5 -40t12 -75.5q-3 -36 -6 -89q-2 -37 -2 -46v-7q3 0 9 0.5t9 0.5l30 3q10 1 30 2.5t30 2.5h6q11 178 3 206q4 1 10 2t23.5 1.5t33 -1.5
t34 -10t31.5 -21.5t20.5 -38.5t4.5 -59q0 -5 -1.5 -29.5t-2.5 -39.5q8 0 21.5 0.5t19.5 0.5q13 1 32 1q9 1 21 1h7l3 -32q-3 0 -8 -1q-6 -1 -20 -3q-3 0 -13.5 -1.5l-17.5 -2.5q-26 -4 -42 -6h-5q-1 -9 -1 -22q-4 -81 -6 -174q1 -185 13 -230q17 -61 64 -21q31 26 68.5 97.5
t59.5 130.5zM303 436q0 10 1 18q-10 -1 -29 -2.5t-29 -2.5q-5 0 -15.5 -0.5t-15.5 -1.5q-16 -2 -24 -2q-3 -57 -3 -117q0 -183 4 -216q7 -72 35 -71q12 0 29 14q18 15 40 45q-6 126 7 336z" />
    <glyph glyph-name=".notdef" horiz-adv-x="500" 
d="M0 0v700h500v-700h-500zM250 395l170 255h-340zM280 350l170 -255v510zM80 50h340l-170 255zM50 605v-510l170 255z" />
    <glyph glyph-name=".null" horiz-adv-x="0" 
 />
    <glyph glyph-name="nonmarkingreturn" horiz-adv-x="333" 
 />
    <glyph glyph-name="space" unicode=" " horiz-adv-x="300" 
 />
    <glyph glyph-name="exclam" unicode="!" horiz-adv-x="610" 
d="M404 220q-8 -24 -45.5 -42.5t-66.5 -19.5q-50 -1 -72.5 54t-19.5 136t10 172t16.5 161.5t-0.5 104.5q4 1 11 2t26.5 2t37 -1.5t38.5 -11.5t35.5 -24.5t23 -43.5t5.5 -66q-2 -29 -6.5 -79.5t-7 -81.5t-5 -74t-2.5 -70t1.5 -54t6.5 -43t14 -21zM221 71q4 2 10.5 5t25.5 8
t35.5 6t36 -5.5t32 -22.5t19 -50t1.5 -82q-43 -9 -73 -10t-46 5.5t-24 17t-10 27t-1.5 32t-0.5 35.5t-5 34z" />
    <glyph glyph-name="quotedbl" unicode="&#x22;" 
d="M281 684q24 -49 1 -101.5t-77 -80.5l-28 15q3 5 6.5 13.5t10 31.5t8 42.5t-7 40t-29.5 30.5l6 4l9 6t11 6.5t13 7t13.5 5.5t14.5 4t13.5 0.5t13.5 -3t12 -8t10 -13.5zM404 684q24 -49 1 -101.5t-77 -80.5l-29 15q3 5 6.5 13.5t10 31.5t8 42.5t-7 40t-29.5 30.5q1 0 8.5 5
t12.5 8.5t15 8.5t17.5 7.5t17.5 4t18 -0.5t15.5 -8t12.5 -16z" />
    <glyph glyph-name="numbersign" unicode="#" 
d="M58 373l-7 15q-10 39 64 64q115 39 414 29q23 -53 -77 -77q-77 -19 -298 -25q-82 -2 -96 -6zM65 195l-7 15q-10 39 64 64q115 38 414 28q23 -52 -76 -76q-77 -19 -298 -25q-83 -2 -97 -6zM222 100l-16 -5q-47 -3 -54 108q-7 132 49 409q45 12 58 -57q14 -82 -23 -334
q-16 -105 -14 -121zM399 75l-16 -5q-48 -3 -54 106q-9 133 48 412q48 13 60 -66q12 -83 -25 -329q-15 -102 -13 -118z" />
    <glyph glyph-name="dollar" unicode="$" 
d="M474 196v-1q-3 -66 -113 -155q3 -52 15 -64q-7 -33 -37.5 -59t-53.5 -27q-22 -1 -37 21.5t-24 64.5q-15 0 -30 3q-90 21 -62 99q12 33 20.5 78t8.5 64h43l-17 -122q-1 -10 15 -2l10 5q24 15 27 17q174 120 56 185q-11 6 -37.5 20.5t-39.5 22.5q-47 27 -73 55t-25 63v0
q3 67 115 157q5 108 0 143q4 2 11 3.5t26 1.5t35.5 -6t34 -26.5t26.5 -53.5q14 1 32 -2q90 -20 62 -100q-11 -33 -20 -77.5t-9 -63.5h-43l17 122q1 10 -14 3q-6 -3 -16 -9q-12 -7 -22 -14q-57 -39 -81 -76.5t-16 -65t41 -44.5q7 -3 29.5 -15t36.5 -19q111 -65 109 -126z" />
    <glyph glyph-name="percent" unicode="%" horiz-adv-x="660" 
d="M254 41q-19 -23 -58.5 -29.5t-56.5 3.5q-21 10 -25 36t6.5 63.5t30.5 83t47.5 96.5t57.5 102t60 101t55 92t43.5 77t24.5 54q3 -1 8.5 -2t20 -7.5t26 -15.5t21.5 -26.5t12 -39t-7.5 -55.5t-32.5 -74q-18 -31 -48.5 -83.5t-50 -86t-45 -78.5t-40.5 -74.5t-29 -59.5
t-18.5 -49t-1.5 -28zM230 685q37 -24 44 -71.5t-21 -90.5t-74 -56.5t-83 11.5q-38 24 -45 71.5t21 90.5t74.5 56t83.5 -11zM560 243q41 -26 48.5 -78t-22.5 -99t-80.5 -61t-91.5 12t-48.5 78t22.5 99t80.5 61t91.5 -12z" />
    <glyph glyph-name="ampersand" unicode="&#x26;" 
d="M508 520q28 -6 50.5 -32t30.5 -58t-9 -65t-60 -51q-17 -6 -49 -20q1 -8 1 -23q0 -67 -17 -117q-16 -45 -37.5 -81t-41 -58t-46.5 -37.5t-44 -22.5t-44 -11t-36 -4h-30q-24 0 -49 8.5t-52.5 29.5t-45.5 65.5t-19 107.5q-2 170 142 244q24 12 35 16q9 3 32 10
q-21 10 -40 20.5t-43.5 27t-40.5 34.5t-32 42.5t-17 50.5t5 58q7 26 26.5 38.5t42.5 14t56 -6.5t57.5 -16.5t56.5 -22.5q2 7 6 21.5t5 17.5q8 28 36 28.5t52 -12.5l24 -14q-4 -4 -14.5 -39t-22.5 -67.5t-38.5 -53t-61.5 -5.5q-1 1 -2.5 1t-2.5 1q-132 57 -157 51
q-21 -5 1 -46q17 -32 55.5 -61t68.5 -42l30 -13l-6 -27q-9 -8 -22 -24l-21 -26q-103 -140 -53 -252q14 -30 46.5 -35t67.5 10.5t67 44t45 60.5q15 40 19 62q3 8 5 26q-110 -60 -90 -116q-14 -1 -39.5 11.5t-45 36t-25.5 51.5t24.5 62t99.5 63q46 19 69 31q22 10 39 21
q35 20 50 43t12 36z" />
    <glyph glyph-name="quotesingle" unicode="'" horiz-adv-x="181" 
d="M141 703q24 -50 1 -102t-77 -81l-28 16q3 5 6.5 13.5t10 31t8 42t-7 40t-29.5 30.5q88 64 116 10z" />
    <glyph glyph-name="parenleft" unicode="(" horiz-adv-x="273" 
d="M145 740q59 -8 82 -35.5t14.5 -72t-27 -89.5t-41 -104.5t-28.5 -100.5q-21 -154 71 -300q21 -41 11 -76t-34 -57.5t-36 -11.5t-38 51t-57.5 101.5t-50 143t-8.5 153.5q15 103 48.5 193t62.5 142.5t31 62.5z" />
    <glyph glyph-name="parenright" unicode=")" horiz-adv-x="273" 
d="M128 -110q-59 8 -82 35.5t-14.5 72t27 89.5t41 104.5t28.5 100.5q21 155 -71 300q-21 41 -11 76t34 57.5t36 11.5t38 -51t57.5 -101.5t50 -143.5t8.5 -154q-15 -103 -48.5 -192.5t-62.5 -142t-31 -62.5z" />
    <glyph glyph-name="asterisk" unicode="*" 
d="M389 540q33 -23 50 -44t18 -34.5t-2.5 -24t-10.5 -15.5l-6 -5q-9 9 -104 52q-10 -106 -7 -114q-3 -2 -8 -3.5t-18 0t-23.5 10t-20 35t-12.5 68.5q-90 -42 -95 -48q-3 2 -7 5t-9.5 15t-3.5 25t19 34t50 44q-101 68 -53 116q34 -12 105 -42q7 62 17 114q68 18 73 -112
q43 19 101 40q48 -48 -53 -116z" />
    <glyph glyph-name="plus" unicode="+" 
d="M506 301q15 -42 -31.5 -61t-132.5 -22q0 -23 -1.5 -67.5t-1.5 -65.5t3 -29l-16 -6q-40 -5 -60 59q-13 41 -17 108q-26 0 -72 1.5t-57 1.5t-33 -2l-6 16q-5 39 59 59q40 13 107 17q1 62 11 165q42 15 61 -31t22 -132q62 -1 165 -11z" />
    <glyph glyph-name="comma" unicode="," horiz-adv-x="372" 
d="M272 48q0 -32 -5 -50v-6h-1q-21 -82 -109 -132l-24 25q5 4 12.5 12t21 35t15.5 56q-34 3 -51.5 19t-20.5 33.5t-4.5 47t-5.5 44.5q4 1 10 3t23.5 5t33.5 3.5t35.5 -3.5t34 -13.5t24.5 -29.5t11 -49z" />
    <glyph glyph-name="hyphen" unicode="-" horiz-adv-x="496" 
d="M111 221l-9 21q-14 56 72 72q74 14 217 -6q13 -37 -6.5 -58t-57.5 -25t-82 -5t-80.5 3t-53.5 -2z" />
    <glyph glyph-name="period" unicode="." horiz-adv-x="362" 
d="M100 141q4 2 10.5 5t25 8t35.5 6t36 -5.5t32 -22.5t19 -50t1 -82q-43 -9 -73 -10t-45.5 5.5t-23.5 17t-10 27t-1.5 32t-0.5 35.5t-5 34z" />
    <glyph glyph-name="slash" unicode="/" 
d="M265 -4q-15 -26 -51 -38.5t-58 -5.5q-28 8 -34 46.5t7 96t35.5 126.5t51 142t54.5 137t45 118t22 78q3 0 9 -0.5t21 -4t27.5 -10.5t25.5 -22.5t18.5 -37t1.5 -56.5t-20 -78q-12 -32 -37 -98q-35 -91 -52 -137.5t-38.5 -111t-28 -98.5t0.5 -46z" />
    <glyph glyph-name="zero" unicode="0" horiz-adv-x="473" 
d="M314 662q83 -12 128 -125.5t25 -261.5t-93.5 -244.5t-156.5 -84.5q-113 14 -172 122t-41 270q10 86 43 188t60.5 173t27.5 91q7 6 32 6.5t53.5 -6.5t47 -35t11.5 -72q-1 -5 -5 -22q19 4 40 1zM428 305q16 114 -9.5 200t-76.5 94q-52 7 -99 -68.5t-63 -190.5
q-16 -114 9.5 -200.5t77.5 -93.5q51 -7 98 68.5t63 190.5z" />
    <glyph glyph-name="one" unicode="1" horiz-adv-x="422" 
d="M419 614q-44 -583 1 -612q-8 -24 -45.5 -42.5t-66.5 -19.5q-22 -1 -38.5 12.5t-26.5 42t-16.5 59t-8 79t-2 87t3 98t6 96t7.5 95.5l-62 -71q-23 -26 -49 -29.5t-46.5 9.5t-38 30t-27.5 32l-10 15q9 4 35.5 34t59 68t73.5 79.5t79.5 67.5t77 32.5t65.5 -25.5
q8 -8 13.5 -17.5t9 -17.5t5.5 -19.5t3 -17.5t1 -18.5t-0.5 -16.5t-1.5 -16.5t-1 -13.5z" />
    <glyph glyph-name="two" unicode="2" horiz-adv-x="473" 
d="M53 61q-10 -44 11 -72t62 -36.5t91.5 -12t98.5 1.5t83 3.5t46 -5.5q3 6 8 16.5t13 38.5t7 50.5t-18 44.5t-53 29q-104 21 -227 -11q-24 -6 -24 -2q0 2 4 8q16 21 45.5 45t59 43t60.5 45.5t54.5 52.5t37.5 64.5t12 82.5t-25 105t-70 132l-6 8q-6 9 -11.5 16.5t-16 19.5
t-20.5 20t-24.5 16.5t-27.5 9.5t-30 0q-53 -10 -91.5 -49t-33.5 -88q3 -30 13.5 -78.5t19.5 -81.5l9 -33l41 -6q-2 12 -4.5 31.5t-6.5 66t-2 76.5q1 20 37 -7q18 -14 32 -31q43 -59 59.5 -110t8.5 -90t-28.5 -72.5t-51 -64t-59 -57t-52.5 -58t-31 -61.5z" />
    <glyph glyph-name="three" unicode="3" horiz-adv-x="515" 
d="M352 405q163 -87 163 -281q0 -105 -85 -164q-81 -55 -182 -36q-116 23 -178 132q-27 46 -40 106q18 21 35 33t30.5 18.5t29 4t25 -5.5t25 -15.5t23 -19.5t24.5 -25t24 -25q34 -35 79 -37t65 29q29 51 23.5 95t-36 80.5t-64.5 62.5t-61 40l-28 14l-6 32q5 2 14.5 6
t34.5 17t47 27t45.5 36.5t35.5 45.5q25 47 2 46q-15 0 -110 -45q-37 -18 -64 -30q-32 -12 -54 -4t-35.5 29.5t-21.5 44.5t-10 40l-3 18q11 0 69.5 24.5t116 46t113.5 15t70 -58.5q14 -50 -0.5 -95t-51 -78.5t-69.5 -54.5t-72 -39q16 -4 37 -12z" />
    <glyph glyph-name="four" unicode="4" horiz-adv-x="498" 
d="M332 645q4 1 10.5 2t25 1.5t35 -2.5t36 -12t33 -24t21 -42.5t4.5 -64.5q-10 -109 -14 -158t-10 -145t-1.5 -144.5t18.5 -57.5q-9 -23 -46 -40.5t-65 -17.5q-34 0 -54 34.5t-26 98.5t-4.5 130.5t8.5 154.5q-17 -40 -68 -71.5t-97 -38.5q-43 -5 -69 25.5t-32 81.5
t-6.5 112.5t7 118.5t8.5 99t-2 54q4 1 10 3t24.5 5t35 4t36.5 -2.5t34 -12.5t23 -28.5t7 -47.5q-2 -42 -10 -126q-15 -153 -4 -182q11 -32 49 6q33 33 53.5 74.5t26.5 77.5t7.5 67.5t-1.5 49.5z" />
    <glyph glyph-name="five" unicode="5" horiz-adv-x="549" 
d="M178 471q255 -39 338 -180q60 -101 14 -215q-38 -95 -127 -144q-114 -63 -233 -6q-76 36 -140 119q11 25 23 42.5t23 27.5t26 12.5t25.5 2.5t28.5 -6.5t28 -11.5t31 -16t31 -16q46 -23 93.5 10.5t57.5 109.5q8 55 -16.5 99.5t-64 68.5t-80.5 39.5t-70 20.5l-30 5
q-6 9 -14 26l-1 2v1q-33 73 -27 181q2 47 38.5 71t90.5 25.5t107 -3.5t99.5 -12t56.5 -4q1 -3 1.5 -9t1.5 -23t-0.5 -32.5t-7.5 -33.5t-16 -31t-28.5 -20t-43.5 -5q-140 14 -164 12q-51 -2 -58 -38q-4 -23 7 -69z" />
    <glyph glyph-name="six" unicode="6" horiz-adv-x="482" 
d="M392 365q99 -73 89 -223q-7 -106 -75 -176.5t-157 -65.5q-25 2 -46 9q-100 31 -145 136t-18 249q15 83 54 179t71.5 162.5t33.5 85.5q6 4 23.5 5t40.5 -4.5t42.5 -17t29.5 -36.5t2 -59q-1 -4 -7 -21q-60 -106 -99 -227q85 59 161 4zM285 -1q49 -7 90.5 42t52.5 125
q10 76 -17 133.5t-76 64.5t-90.5 -42t-52.5 -125t16.5 -134t76.5 -64z" />
    <glyph glyph-name="seven" unicode="7" horiz-adv-x="467" 
d="M453 676q5 -10 8 -20.5t5 -19t0.5 -20t-1.5 -17.5t-4 -18.5t-5 -15t-6 -15.5l-4 -13q-189 -555 -153 -593q-14 -21 -55 -29.5t-69 -1.5q-23 5 -36.5 22.5t-16.5 44.5t0 60t13.5 74.5t22.5 82t29 88.5t31.5 87.5t31 85.5t26.5 77q17 50 7 58t-56 -5q-22 -5 -36 -8
t-41.5 -7t-53.5 -6q-34 -2 -55.5 15.5t-27.5 44t-7 53.5t2 46l4 19q3 0 11 2q361 70 436 -71z" />
    <glyph glyph-name="eight" unicode="8" horiz-adv-x="438" 
d="M236 447q9 -7 29 -22q83 -63 111 -102q76 -106 -24 -255q-27 -41 -67 -85q-28 -28 -39 -37q-60 -48 -109 -32q-47 15 -86 62.5t-48 99.5q-27 143 182 364q-43 38 -59 52.5t-38 46t-24 58.5q-4 54 25.5 88.5t79 47t98.5 17.5t93.5 6t55.5 6v0q1 -1 2 -4q6 -11 10.5 -24
t8.5 -36t-3.5 -47t-27.5 -42q-1 -1 -32.5 -28t-68 -62.5t-69.5 -71.5zM157 530q14 -28 55 -63q59 59 141 126q-2 -1 -6 -1q-168 -8 -190 -32q-10 -11 0 -30zM215 113q51 51 71.5 95.5t10.5 82.5t-30 65.5t-57 60.5q-129 -151 -126 -261q1 -38 17.5 -56t39 -16.5t42.5 10
t32 19.5z" />
    <glyph glyph-name="nine" unicode="9" horiz-adv-x="452" 
d="M90 291q-99 73 -89 222q7 106 75 177t158 65q24 -2 46 -9q99 -30 144 -135t19 -250q-15 -82 -54.5 -178t-72 -162.5t-33.5 -86.5q-6 -4 -23.5 -4.5t-40.5 5t-42.5 17t-29.5 36.5t-2 59q1 2 2 6t2.5 7.5t2.5 7.5q60 106 99 226q-87 -59 -161 -3zM198 657q-50 6 -92 -42.5
t-52 -124.5t17 -134t76 -64q49 -7 91 42t53 125q10 76 -17 133.5t-76 64.5z" />
    <glyph glyph-name="colon" unicode=":" horiz-adv-x="362" 
d="M100 443q4 2 10.5 5t25 8.5t35.5 6.5t36 -5.5t32 -22.5t19 -50t1 -82q-43 -9 -73 -10t-45.5 5.5t-23.5 16.5t-10 26.5t-1.5 32t-0.5 35.5t-5 34zM100 201q4 2 10.5 5t25 8t35.5 6t36 -5.5t32 -22.5t19 -50t1 -82q-43 -9 -73 -10t-45.5 5.5t-23.5 17t-10 27t-1.5 32
t-0.5 35.5t-5 34z" />
    <glyph glyph-name="semicolon" unicode=";" horiz-adv-x="372" 
d="M272 174q0 -32 -5 -50v-6h-1q-21 -82 -109 -132l-24 25q5 4 12.5 12t21 35t15.5 56q-34 3 -51.5 19t-20.5 33.5t-4.5 47t-5.5 44.5q4 1 10 3t23.5 5t33.5 3.5t35.5 -3.5t34 -13.5t24.5 -29.5t11 -49zM100 492q4 2 10.5 5t25 8.5t35.5 6.5t36 -5.5t32 -22.5t19 -50t1 -82
q-43 -9 -73 -10t-45.5 5.5t-23.5 16.5t-10 26.5t-1.5 32t-0.5 35.5t-5 34z" />
    <glyph glyph-name="less" unicode="&#x3c;" 
d="M115 193q51 -81 129.5 -136t136.5 -57q39 -1 62 55t16 76q-88 18 -202 55q-73 24 -20 60q34 23 162 72q32 12 45 35t8 47.5t-15 46.5t-21 37l-10 14q-7 -7 -39.5 -24.5t-70.5 -37.5t-81.5 -49t-71.5 -58.5t-40 -65.5t12 -70z" />
    <glyph glyph-name="equal" unicode="=" 
d="M135 281l-5 19q-4 42 60 61q86 25 279 0q10 -36 -17 -56t-73.5 -23t-98.5 -3.5t-91.5 4t-53.5 -1.5zM138 103l-5 19q-3 42 60 61q85 25 278 -1q11 -35 -16 -55t-73.5 -23t-98.5 -3.5t-91.5 4t-53.5 -1.5z" />
    <glyph glyph-name="greater" unicode="&#x3e;" 
d="M465 305q-52 81 -130 136t-137 57q-28 0 -47.5 -30t-26 -61t-3.5 -41q99 -21 202 -54q73 -24 19 -60q-34 -23 -162 -72q-32 -12 -44.5 -35t-7.5 -47.5t15 -46.5t21 -37l10 -14q6 6 38.5 23.5t71 38t82 49.5t71.5 58.5t40 65.5t-12 70z" />
    <glyph glyph-name="question" unicode="?" horiz-adv-x="528" 
d="M239 60q4 2 10.5 5t25 8.5t35.5 6.5t36 -5.5t32 -22.5t19 -50t1 -82q-43 -9 -73 -10t-45.5 5.5t-23.5 16.5t-10 26.5t-1.5 32t-0.5 35.5t-5 34zM378 285q40 0 56 -30t12 -59l-3 -30q-10 0 -40.5 -5t-56 -5.5t-56 5t-54.5 30.5t-37 68q-13 35 -4 67.5t24.5 56t42.5 46
t49.5 37t45.5 29.5t31 23q68 69 -12 87q-63 14 -194 -9q-40 -7 -66 6.5t-35 37.5t-12 49t-1 43l2 19q12 -3 66 6t116.5 17t125.5 8.5t105.5 -24.5t44.5 -78q1 -38 -19 -75t-42 -59t-69 -62t-67 -60q-32 -31 -40 -58t4 -44t34 -27t49 -10z" />
    <glyph glyph-name="at" unicode="@" horiz-adv-x="657" 
d="M311 548q123 0 209.5 -86t86.5 -208q0 -73 -32 -134q-20 -39 -63.5 -63.5t-93.5 -24.5q-91 0 -81 167q-63 -61 -133 -50q-44 8 -57 44t6 78t57 66q67 42 145 25q3 42 -2 61q3 1 9 2t22 1.5t30.5 -1.5t31.5 -9.5t28.5 -19.5t17.5 -35t3 -53q-15 -140 16 -175q21 -24 49 28
q3 6 6 13q10 38 10 72q0 104 -70 178t-168 74q-100 0 -176 -74.5t-76 -177.5t76 -177t176 -74q15 -2 21.5 -10t5.5 -15l-1 -7q-3 -2 -53 -3q-120 -2 -215.5 86t-95.5 208t93.5 207t217.5 87zM344 265l6 52q-14 0 -29 -2t-35.5 -8.5t-33.5 -21t-14 -36.5q-2 -50 45 -30
q30 13 61 46z" />
    <glyph glyph-name="A" unicode="A" horiz-adv-x="440" 
d="M395 602q-20 -546 25 -572q-8 -26 -44.5 -47t-65.5 -24q-59 -4 -78 83t-11 237q-20 2 -29 2l-34 3q-22 2 -33 2q-3 0 -8.5 1t-7.5 1t-7 0.5t-8 0.5q-10 1 -28 3q-1 0 -3 0.5t-3 0.5q-7 -51 -17 -139t-17 -133t-14 -60q-8 -27 -45.5 -48.5t-66.5 -22.5q23 146 49 267
t50.5 206.5t52.5 152t50 107.5t49.5 69t45 40.5t41.5 17t34 4t27 -2.5q5 0 13 -2h2q79 -19 81 -129v-4v-2v-1v-11zM196 326q18 -2 27 -2q1 15 3.5 46.5t3.5 47.5q1 7 3.5 36.5t3.5 47t2.5 47t0.5 48t-4 37.5t-10 28t-17 9q-93 -4 -142 -330q3 0 5 -1l27 -3q2 -1 7 -1t8 -1
t8 -1.5t8 -0.5q10 -1 32 -3q12 -2 34 -4z" />
    <glyph glyph-name="B" unicode="B" horiz-adv-x="513" 
d="M357 350q72 0 99.5 -43.5t11.5 -105t-64 -119.5q-116 -140 -312 -140q-36 -1 -58 38.5t-28 103.5t-6 145t7.5 163.5t12.5 158t9 129t-3 77.5q4 1 11 2t26.5 2t37 -1.5t38.5 -11.5t35.5 -24t23 -43t5.5 -66q-3 -39 -6 -92q64 138 150 128q70 -13 54 -111t-97 -196
q24 6 53 6zM312 609q-22 1 -45 -37t-40 -96t-27 -98.5t-15 -70.5v-7q74 52 122 163q39 92 24 131q-6 14 -19 15zM204 4q8 3 22 10t49 29.5t61.5 47.5t47.5 64t20 80q-1 24 -17.5 36.5t-41.5 12.5t-54.5 -8t-58 -23t-50.5 -33q-4 -201 22 -216z" />
    <glyph glyph-name="C" unicode="C" horiz-adv-x="390" 
d="M414 242l28 -14q-54 -95 -112 -160.5t-109.5 -95t-96 -22.5t-74.5 49t-42.5 128t-2.5 207q10 119 38 206t62 129.5t72 63t68 19.5t50 -14q87 -54 37 -288l-29 22q1 5 2 14.5t2.5 33t-0.5 41.5t-10.5 33.5t-23.5 16.5q-8 1 -14 0t-20.5 -14t-25.5 -38t-23 -80t-18 -132
q-11 -122 -0.5 -185.5t33 -85.5t57 -3t72.5 61.5t80 107.5z" />
    <glyph glyph-name="D" unicode="D" horiz-adv-x="373" 
d="M306 661q40 -5 57.5 -72t7 -162t-37.5 -192t-80 -174.5t-116 -98.5q-27 -10 -45 -10q-36 -1 -58 38.5t-28 103.5t-6 145t7.5 163.5t12.5 158t9 129t-3 77.5q4 1 11 2t26.5 2t37 -1.5t38.5 -11.5t35.5 -24t23 -43t5.5 -66q0 -10 -1 -16q48 59 104 52zM188 386
q-14 -280 5 -350q52 54 83 197.5t28.5 263.5t-33.5 122q-20 1 -36 -22.5t-24 -58t-14 -69t-7 -59.5z" />
    <glyph glyph-name="E" unicode="E" horiz-adv-x="402" 
d="M428 216l28 -14q-55 -96 -117.5 -161.5t-118 -91t-104 -15.5t-77.5 57q-26 38 -33.5 133t-4 174.5t14.5 214.5t13 168q2 47 38.5 71t90.5 25.5t107.5 -4t99.5 -12t56 -3.5q1 -4 1.5 -10t1 -23.5t-0.5 -33t-7 -34t-16 -31t-28.5 -19.5t-43.5 -3q-90 13 -126 15
q-8 -88 -14 -203q8 -3 24 -7q3 -1 7 -2t7 -1q2 -1 6 -1q1 -1 3 -1t3 -1q2 0 6 -0.5t6 -0.5q2 -1 5 -1q4 0 5 -1h5h4h7h4h1l4 -40h-2h-2q-2 -1 -4 -1h-8h-5h-6h-6h-6q-2 1 -7 1t-7 1h-7q-2 1 -7 1l-15 3q-3 1 -8.5 2t-8.5 1q-11 -230 4 -311q14 -74 92 -14q68 52 146 173z
" />
    <glyph glyph-name="F" unicode="F" horiz-adv-x="324" 
d="M328 584q-90 13 -126 15q-8 -114 -13 -197q29 -7 58 -11q6 -1 20 -3q3 0 9.5 -1t9.5 -2q2 -1 5 -1t4 -1q6 0 9 -1q6 0 8 -1h8q1 0 3.5 -0.5t3.5 -0.5h6h10h4h2h2l4 -40h-3q-2 0 -3 -1h-5h-12h-7h-8q-5 0 -8 1h-9q-2 0 -5 0.5t-4 0.5q-7 0 -10 1q-6 0 -20 2q-4 0 -11 1
t-10 1q-8 1 -26.5 3.5t-27.5 4.5q-14 -330 18 -350q-9 -24 -46.5 -42.5t-66.5 -19.5q-30 -1 -50 25.5t-28.5 76.5t-11.5 106.5t1 131.5t8 134.5t10.5 133.5t8.5 111q2 47 38.5 71t90.5 25.5t107.5 -4t99.5 -12t56 -3.5q1 -4 1.5 -10t1 -23.5t-0.5 -33t-7 -34t-16 -31
t-28.5 -19.5t-43.5 -3z" />
    <glyph glyph-name="G" unicode="G" horiz-adv-x="467" 
d="M304 309q54 24 85.5 9.5t43.5 -46t16 -79.5t3 -92t4.5 -82.5t20.5 -51.5q-6 -5 -15.5 -12.5t-34.5 -20.5t-45.5 -15t-39.5 17t-24 64l-2.5 45t2.5 40.5t3 36.5q-33 -127 -109 -150q-66 -20 -127 46q-77 83 -85 237q-3 43 1 89q10 119 41.5 206t69.5 129t80.5 63t75 20
t52.5 -14t32 -28.5t19 -44.5t3.5 -77t-17.5 -116l-30 22l2.5 12.5t2.5 27t-1 34.5t-10 28t-23 14q-8 1 -15.5 0t-26 -14t-33 -38t-30 -79.5t-24.5 -131.5q-23 -208 29 -279q29 -41 65 -13q43 33 50 124q5 56 -9 120z" />
    <glyph glyph-name="H" unicode="H" 
d="M567 595q-44 -584 1 -611q-9 -24 -46.5 -42.5t-66.5 -19.5q-35 -1 -56.5 35t-28.5 103.5t-6.5 137t6.5 161.5h-4h-7h-8q-5 0 -8 1h-9q-1 0 -4.5 0.5t-5.5 0.5q-6 0 -9 1q-7 0 -21 2q-3 1 -10 1.5t-10 0.5l-76 11q-8 2 -11 2q-16 -335 17 -355q-8 -24 -45.5 -42.5
t-66.5 -19.5q-36 -1 -58 38.5t-28 103.5t-6 145t7.5 163.5t12.5 158t9 129t-3 77.5q4 1 11 2t26.5 2t37 -1.5t38.5 -11.5t35.5 -24t23 -43t5.5 -66q-8 -111 -13 -206q1 0 7 -1.5l10 -2.5l73 -14q14 -2 20 -3l20 -3q2 -1 5 -1t4 -1q6 0 9 -1q5 0 8 -1h7q1 0 4 -0.5t4 -0.5h6
h6q3 33 7.5 88.5t7 86.5t4.5 68t1.5 59.5t-3.5 34.5q4 1 11 2t26.5 2t37 -1.5t38.5 -11.5t35.5 -24t23 -43t5.5 -66z" />
    <glyph glyph-name="I" unicode="I" horiz-adv-x="250" 
d="M204 4q-8 -24 -45.5 -42.5t-66.5 -19.5q-36 -1 -58 38.5t-28 103.5t-6 145t7.5 163.5t12.5 158t9 129t-3 77.5q4 1 11 2t26.5 2t37 -1.5t38.5 -11.5t35.5 -24t23 -43t5.5 -66q-44 -583 1 -611z" />
    <glyph glyph-name="J" unicode="J" horiz-adv-x="410" 
d="M535 343l8 -39q-13 -2 -85 -9.5t-89 -11.5q-4 -2 -8 -2q8 -402 -101 -397q-20 2 -45 11l-4 2q-20 7 -25 10q-28 14 -46 28q-21 15 -40 36q-16 18 -33 41q-12 18 -26 46l-1 3l-1 2v1l-1 1l-1 2l-1 2v1v1q-4 7 -5 14q-4 13 -4 31q0 19 4 32q4 14 13 28q8 14 18 24
q6 7 20 19q14 11 44 29q20 10 46 22q11 4 14 5q3 172 -7 303q-14 -1 -89 -7q-34 -3 -55.5 12t-27.5 39t-7 48.5t2 41.5l4 18q10 -3 50.5 2t86 8t92 -2.5t78.5 -35t35 -83.5v-10q1 -28 5.5 -127.5t6.5 -156.5q18 4 90.5 10t84.5 8zM93 86l2 -2q9 -18 22 -37q10 -14 16 -21
q1 0 1 -1h1q11 -13 21 -13t16 24v3q0 2 1 3q7 67 12 178q-22 -11 -33 -18q-18 -10 -35 -25t-25 -29q-4 -8 -6 -15q-2 -5 -2 -16q0 -7 3 -16q1 -2 2 -4.5t1 -3.5v-1h1v-1v-1h1v-1l1 -2v0v-1z" />
    <glyph glyph-name="K" unicode="K" horiz-adv-x="480" 
d="M512 261l23 -11q-1 -3 -3 -7l-2.5 -5t-3 -7.5t-3.5 -7.5q-9 -18 -15 -29q-5 -10 -21 -38q-12 -22 -28 -43q-1 -2 -17 -23q-6 -8 -21 -23q-9 -10 -26 -22q-10 -6 -16 -9t-20 -7q-16 -2 -24 -1q-5 1 -13 3l-3 1l-3 1q0 1 -1 1t-2 1l-2 1h-1v1h-2l-2 2l-1 1h-2l-2 2
q-7 3 -9 7q-3 2 -15 14q-12 15 -21 30q-15 25 -17 29q-12 25 -25 59q-4 9 -20 55q-1 2 -5 15.5t-6 20.5q-5 -242 21 -258q-8 -24 -45.5 -42.5t-66.5 -19.5q-36 -1 -58 38.5t-28 103.5t-6 145t7.5 163.5t12.5 158t9 129t-3 77.5q4 1 11 2t26.5 2t37 -1.5t38.5 -11.5t35.5 -24
t23 -43t5.5 -66q-1 -19 -4.5 -68l-5.5 -77q23 36 69.5 73.5t85.5 64t45 35.5q6 -4 14.5 -11t27 -27.5t27.5 -40.5t3 -46t-35 -47l-49 -35t-38.5 -28.5t-25 -20.5t-19 -19.5t-8.5 -18t-4 -23.5q0 -9 2 -31v-5v-5v1q2 -24 4 -39q4 -37 7 -53q6 -36 11 -54q2 -9 8 -27
q6 -16 10 -23q4 -6 5 -9l3 -3l1 -1v-1h1v-1v0l2 -1h1v-1q2 0 3 -1h6q8 0 19 6q14 8 21 14q12 10 19 17q6 7 18 19q13 16 30 38q3 4 24 34l17 27q9 16 10 18z" />
    <glyph glyph-name="L" unicode="L" horiz-adv-x="464" 
d="M464 2q-13 0 -67 -20.5t-108 -38.5t-118 -22t-98 29q-36 23 -50.5 106t-9.5 186t12.5 214t15 189t-1.5 112q4 1 11 2t26.5 2t37 -1.5t38.5 -11.5t35.5 -24t23 -43t5.5 -66q-30 -387 -19 -536q66 29 125 49q41 13 68 5.5t42 -29t22 -44t8 -40.5z" />
    <glyph glyph-name="M" unicode="M" horiz-adv-x="714" 
d="M689 546q-20 -472 25 -495q-8 -22 -44.5 -40t-65.5 -20q-31 -2 -51.5 18.5t-28.5 60.5t-11 86.5t1.5 108t9 112t11.5 112t9 94.5q2 20 -9 26t-25.5 -1.5t-23.5 -20.5q-4 -6 -5 -9q-13 -21 -21 -41q-18 -41 -31 -102q-8 -38 -11 -58q-6 -30 -9 -61l-9 -64q0 -5 -2 -17
q0 -1 -1 -4t-1 -5q0 -1 -2 -5q0 -3 -1 -4t-1 -2l-1 -1l-1 -1v-1l-2 -2q-2 -2 -4 -3q-2 -2 -6 -2h-2h-4q-2 1 -5 2l-1 1q-2 0 -2 1l-3 3q-1 0 -2 2l-1 2v1q-1 1 -1 2q-2 4 -3 5q0 1 -0.5 2.5t-0.5 2.5q-4 12 -5 17q-1 7 -3.5 18t-3.5 16t-2.5 16t-2.5 17q-2 10 -5.5 32.5
t-5.5 34.5q-2 10 -5.5 32.5t-5.5 33.5q-1 6 -3.5 17t-3.5 16q-3 13 -8 31q-2 -6 -2 -7q-1 -3 -2.5 -8t-2.5 -7l-3 -15q-2 -5 -4 -15q-10 -53 -19 -119q-2 -14 -5 -36.5t-5 -40t-4 -32.5q-11 -88 -11 -91l-11 -71q0 -2 -0.5 -6.5t-1.5 -6.5q-2 -10 -2 -13q-1 -2 -4 -19
q0 -5 -1 -7v-1q-7 -33 -32 -53t-47 -25.5t-44 -5.5q-36 -1 -58 38.5t-28 103.5t-6 145t7.5 163.5t13 158t9.5 129t-3 77.5q4 1 11 2t26.5 2t37 -1.5t38.5 -11.5t35.5 -24t23 -43t5.5 -66q-12 -137 -15 -309q3 10 7.5 28.5t6.5 26.5q10 38 16 58q2 10 8 30l9 31q0 2 1.5 7.5
t2.5 8.5q4 10 5 15q2 6 6 16q3 9 7 17q2 6 4 9q1 3 5 9l5 5q4 4 7 6q3 3 7 3q1 1 5 1h2h2q5 0 9 -2t6 -4q4 -3 6 -6q2 -2 4 -6t4 -10q5 -10 6 -17q7 -27 8 -34q2 -12 6 -34q4 -23 10 -67q1 -5 2.5 -16.5t2.5 -17.5t2.5 -17t2.5 -16l3 -24q1 5 2.5 13t1.5 12l9 62q2 17 11 60
q2 8 6.5 27t7.5 29q14 41 18 51q7 20 22 46q11 20 28 39q17 17 32 25v0l1 1q2 0 2 1q16 8 37 12q2 0 3 1q5 1 14 2t32 -1.5t40.5 -12t32.5 -35.5t16 -65v-3v-2v-1v-10zM290 530h1h-1zM363 231z" />
    <glyph glyph-name="N" unicode="N" 
d="M587 557q-20 -473 24 -495q-8 -22 -44.5 -40.5t-65.5 -20.5q-26 -2 -44.5 13t-28 45t-14.5 65t-4 84.5t4 92t8 97.5q1 6 3.5 32t3.5 40.5t2.5 40t0.5 41.5t-4 32.5t-10 24.5t-18 8q-42 -1 -74.5 -58.5t-50.5 -142.5t-30 -170t-22 -156t-19 -87q-8 -24 -45.5 -42.5
t-66.5 -19.5q-36 -1 -58 38.5t-28 103.5t-6 145t7.5 163.5t12.5 158.5t9 129.5t-3 77.5q4 1 11 2t26.5 2t37 -1.5t38.5 -11.5t35.5 -24.5t23 -43.5t5.5 -66q-18 -240 -21 -412q25 137 60 235t67 146t70 73.5t61.5 29t50.5 0.5q2 0 6.5 -1t6.5 -1h2q79 -17 81 -112v-3v-2v-1
v-9z" />
    <glyph glyph-name="O" unicode="O" horiz-adv-x="469" 
d="M314 663q83 -12 128 -125.5t25 -261.5t-93.5 -244.5t-156.5 -84.5q-113 14 -172 122t-41 270q10 86 43 187.5t60.5 172.5t27.5 91q7 6 32 6.5t53.5 -6.5t47 -35t11.5 -72q-1 -6 -5 -22q21 5 40 2zM267 47q45 -8 89 54q-40 37 -93 125t-71 179q-8 -32 -12 -64
q-16 -115 9.5 -200.5t77.5 -93.5zM428 305q16 114 -9.5 200t-76.5 94q-9 2 -17 0q-38 -8 -51 -68.5t-2 -135t40 -149t67 -107.5q35 69 49 166z" />
    <glyph glyph-name="P" unicode="P" horiz-adv-x="374" 
d="M347 644q61 -8 57 -87q-5 -89 -78 -191q-62 -87 -143 -132q-5 -221 21 -237q-8 -24 -45.5 -42.5t-66.5 -19.5q-36 -1 -58 38.5t-28 103.5t-6 145t7.5 163.5t12.5 158.5t9 129.5t-3 77.5q4 1 11 2t26.5 2t37 -1.5t38.5 -11.5t35.5 -24t23 -43t5.5 -66q-3 -39 -6 -92
q65 138 150 127zM312 602q-22 2 -45 -36t-40 -96t-27 -98.5t-15 -70.5v-8q74 52 122 163q39 92 24 131q-6 14 -19 15z" />
    <glyph glyph-name="Q" unicode="Q" horiz-adv-x="510" 
d="M540 -56q3 -25 -15.5 -54.5t-55.5 -43.5q-19 -6 -35.5 -6t-29 4.5t-24 14t-19.5 20t-16.5 26.5t-14.5 29.5t-13 32.5q-49 -35 -100 -28q-113 14 -172 122t-41 270q10 86 43 187.5t60.5 172.5t27.5 91q7 6 32 6.5t53.5 -6.5t47 -34.5t11.5 -71.5q-1 -7 -5 -23q21 5 40 2
q83 -12 128 -125.5t25 -261.5q-12 -83 -43 -157q15 -36 22.5 -52.5t19 -41t18.5 -35t17 -22t19 -14.5t20 -2zM267 39q11 -2 20 1q-26 57 -60 76q12 29 40 54.5t63 31.5t65 -34q24 62 33 129q16 114 -9.5 200t-76.5 94q-52 7 -99 -68.5t-63 -189.5q-16 -115 9.5 -200.5
t77.5 -93.5z" />
    <glyph glyph-name="R" unicode="R" horiz-adv-x="450" 
d="M498 252l22 -11q-1 -2 -2 -6l-8 -16q-11 -21 -32 -55q-7 -13 -23 -36q-12 -18 -29 -38q-19 -22 -37 -37q-9 -8 -24 -16q-10 -4 -15 -5q-8 -3 -17 -3q-6 0 -18 2q-2 1 -8 3l-1 1h-1l-1 1h-1l-1 1h-1l-1 1q-2 1 -4 2.5t-3 1.5t-3 2t-3 2q-8 6 -11 9q-14 12 -20 19
q-16 19 -17 20q-17 22 -28 40q-4 6 -11 18.5t-11 18.5l-7 14q-2 -181 22 -196q-8 -24 -45.5 -42.5t-66.5 -19.5q-36 -1 -58 38.5t-28 103.5t-6 145t7.5 163.5t12.5 158.5t9 129.5t-3 77.5q4 1 11 2t26.5 2t37 -1.5t38.5 -11.5t35.5 -24t23 -43t5.5 -66q-3 -39 -6 -92
q64 139 150 127q60 -7 56 -86q-4 -88 -76 -190q-50 -71 -115 -115q9 -24 21 -53q13 -28 17 -36q10 -20 22 -38q10 -16 28 -36q1 -1 4 -3.5t5 -4.5t4 -3q1 -1 4 -3l1 -1v0h1v-1h1h1v-1q1 0 2 -0.5t2 -0.5q2 -1 8 -1q9 0 18 4q3 1 6 3t6.5 4.5t6.5 3.5q16 13 33 32q3 4 29 35
q3 4 11 16l12 18q8 13 19.5 32.5t12.5 20.5q2 3 4.5 8l3.5 7zM312 595q-22 1 -45 -37t-40 -96t-27 -98.5t-15 -70.5v-7q74 51 122 163q39 92 24 131q-6 14 -19 15z" />
    <glyph glyph-name="S" unicode="S" horiz-adv-x="387" 
d="M366 79q4 -54 -26 -88.5t-79 -47t-98.5 -17t-94 -6t-54.5 -6.5q-2 7 -5.5 18t-7 39.5t1 50.5t24.5 41t57 21q168 8 190 32q10 11 0 30q-14 27 -47 56t-66 53.5t-67.5 54.5t-52.5 66t-20 80t29.5 104.5t95.5 132.5q28 28 39 37q60 48 109 32q88 -27 61 -140
q-12 -46 -20.5 -109t-8.5 -90h-41q9 105 16 172q1 12 -9 7q-9 -4 -42 -36q-51 -51 -73 -97t-16 -82t25.5 -68t49.5 -61.5t57.5 -56.5t49 -59t23.5 -63z" />
    <glyph glyph-name="T" unicode="T" horiz-adv-x="450" 
d="M556 740q1 -4 2 -11t2 -26.5t-1.5 -37t-11.5 -38.5t-24.5 -35.5t-43.5 -23t-66 -5.5l-35 3q-38 -541 4 -568q-8 -24 -45.5 -42.5t-66.5 -19.5q-87 -2 -92 232q-2 104 21 389q1 14 2 25q-122 8 -139 -20q-24 8 -42.5 45.5t-19.5 66.5q-1 50 46.5 72.5t118 19.5t150.5 -10
t143.5 -16.5t97.5 0.5z" />
    <glyph glyph-name="U" unicode="U" 
d="M585 477q-2 -24 -6.5 -80.5t-6.5 -86.5t-5 -79t-3 -77t1.5 -59t6.5 -48t14 -22q-8 -24 -46 -42.5t-66 -18.5q-84 -3 -91 195q-27 -94 -73.5 -153t-95 -74t-95 0t-77.5 58q-33 44 -39.5 162.5t4.5 237t19 230.5t0 139q4 1 11 2t26.5 2t37 -1.5t38.5 -11.5t35.5 -24t23 -43
t5.5 -66q-31 -437 -13 -558q9 -46 45 -39q46 8 91 89q54 98 74 252q7 53 11 132t-3 126q4 1 11 2t26.5 2t37 -1.5t38.5 -11.5t35.5 -24t23 -43t5.5 -66z" />
    <glyph glyph-name="V" unicode="V" horiz-adv-x="482" 
d="M447 814q-2 10 5 12q7 1 13 0t11 -2l4 -2q16 -496 -99 -711q-66 -122 -154 -114q-49 4 -94 51q-38 40 -62 138t-31.5 195t-17.5 190.5t-22 119.5q4 2 10.5 4t25.5 6t37 4.5t40 -4.5t38.5 -17.5t30 -39t16.5 -64.5q29 -316 70 -439q21 -49 59 -6q55 65 91 258
q34 189 29 421z" />
    <glyph glyph-name="W" unicode="W" horiz-adv-x="747" 
d="M787 666l10 -39h-4q-1 -1 -4 -1q-1 -1 -2 -1q-2 -1 -3 -1q-31 -7 -37 -8q-53 -7 -57 -7q2 -4 2 -8q5 -19 11 -55q10 -57 11 -110q2 -56 -3 -108q-4 -44 -16 -100q-14 -55 -29 -88q-19 -42 -39 -71q-18 -26 -42 -48q-7 -7 -33 -26q-8 -4 -10 -6l-3 -2v1q-28 -17 -47 -21
q-34 -8 -61.5 10t-45.5 57.5t-29.5 84t-20.5 104.5q-8 -29 -21 -61t-38 -76.5t-65 -77.5t-87 -42q-2 0 -5.5 -0.5t-5.5 -1.5q-52 -8 -83.5 59t-42 173.5t-14.5 215t-8.5 201.5t-14.5 117q4 1 11 3t27 5.5t38.5 3.5t41.5 -6t39.5 -18.5t29 -38t13.5 -61.5q14 -363 42 -505
q8 -37 30 -11l5.5 11t14 31.5t18.5 50.5t17 65.5t14 79.5t4 90t-9 99l6 -14q-2 6 -6 14q8 3 20.5 7.5t46 8.5t60.5 -2t51 -34t30 -77q22 -190 49 -285v0q1 -1 1 -4q6 -22 22.5 -21t33.5 32q1 2 3 6.5t3 6.5q0 2 1 3l1 1v2q13 28 25 70q12 49 17 92q5 40 5 100q0 55 -7 103
q-3 26 -9 51q-1 7 -5 21q-2 0 -4 1l-21 3q-13 3 -23 7q-16 6 -23 11q-12 6 -23 17q-13 15 -17 25q-9 19 -6 35q0 7 4 19q5 10 12 17q6 8 17 13q6 3 20 5h10h5l2 -1h2h1h1l1 -1h1h1h1q1 -1 2.5 -1t2.5 -1q2 -1 5 -2t4 -2q7 -5 14 -11q7 -4 12 -11q7 -9 17 -25q15 -25 24 -53
q1 -1 1 -3h9q26 1 54 5q5 1 13 2.5t13 2.5t9 2q4 0 5 1q3 0 4 1h3zM602 664q1 -1 17 -6q-9 21 -11 24q-6 10 -12 18q-7 8 -12 11l-2 1l-1 1h-1v0v0h-1v0h-1h-1q-1 1 -3 1q-1 -1 -4 -1l-2 -2q-3 -1 -3 -7q-1 -3 1 -11q3 -6 8 -11q8 -8 13 -11q3 -2 15 -7z" />
    <glyph glyph-name="X" unicode="X" horiz-adv-x="499" 
d="M499 84q1 -26 -26 -57.5t-54 -43.5q-53 -24 -105.5 53t-106.5 222q-17 -30 -27 -52q-8 -14 -32 -62l-27 -56q-4 -8 -11.5 -24.5t-10.5 -23.5t-8.5 -19.5t-7.5 -18.5q-6 -12 -10 -24l-4 -8l-69 29q0 1 1 2q2 4 3 7q7 14 12 25q2 5 18 37q10 22 24 48q4 9 14.5 28t15.5 29
l35 62l39 66q2 2 10 16q1 2 4 6.5t4 6.5q-18 51 -48.5 147.5t-48.5 146t-31 66.5l9 6t23.5 12t34.5 13t40 4.5t42 -9t38 -31t31 -58.5q17 -56 38 -112q4 6 7 9q1 1 2.5 3.5t2.5 3.5l3 3q1 2 3 4l10 13q2 2 5.5 6.5t5.5 6.5l10 13q2 2 5.5 6t5.5 6q6 8 10 12q3 3 9 11
q1 2 4 5.5t5 4.5q4 4 9.5 10t8.5 9l4 4q1 2 4 5l7 7l14 14l26 26l28 -29l-24 -25q-4 -5 -13 -14q-2 -3 -7 -8q-1 -2 -3 -4q0 -1 -2 -2.5t-2 -2.5l-16 -19q-1 -1 -4 -5t-5 -5q-2 -4 -8 -12q-7 -7 -10 -11l-9 -12q-9 -12 -10 -13q-1 -2 -4 -6.5t-5 -6.5q-6 -8 -10 -14l-3 -3
l-2 -4q-4 -4 -5 -7q-4 -4 -10 -14q-1 -1 -3 -4l-3 -3q0 -1 -5 -8l-6 -9q129 -368 171 -374z" />
    <glyph glyph-name="Y" unicode="Y" horiz-adv-x="476" 
d="M319 756h6.5t18 -1t25 -3.5t28.5 -7.5t28.5 -13.5t25 -21t18 -30t7.5 -41t-7 -53.5q-142 -568 -104 -603q-13 -22 -52.5 -33.5t-68.5 -7.5q-24 3 -38 22t-19 51.5t-4 71.5t9 89.5t17.5 97.5t23.5 104q-57 -93 -135 -93q-53 2 -77 44t-21 103.5t13.5 123t21 114.5t7.5 65
q7 1 19 2.5t42 -0.5t52 -10.5t37.5 -34t9.5 -64.5q-29 -195 -30 -201q-4 -51 8 -50q10 0 33 33q42 60 68.5 146.5t32.5 143.5z" />
    <glyph glyph-name="Z" unicode="Z" horiz-adv-x="494" 
d="M346 144q41 13 68.5 4t43.5 -33t24 -49.5t10 -45.5l2 -20q-12 0 -64 -14t-112 -26.5t-124 -17.5t-115 17t-70 73q-3 8 -6 22t8.5 60.5t45.5 94.5q31 45 137.5 138.5t125.5 118.5q78 99 -68 98q-54 -1 -138 -16q-40 -7 -66 7t-34.5 39t-12 51t-1.5 45l3 19q12 -3 66 6.5
t116.5 18t125.5 9t105.5 -26t43.5 -81.5q1 -49 -22 -96t-60 -83t-82.5 -75t-87.5 -71t-77 -71t-49 -75q-17 -43 39 -55q77 -17 225 35z" />
    <glyph glyph-name="bracketleft" unicode="[" horiz-adv-x="474" 
d="M347 96q34 6 56 -5t29 -31.5t9 -41.5t-1 -36l-2 -16q-10 3 -41.5 -5t-65.5 -14.5t-70 -5.5t-64.5 27.5t-40.5 79.5l1 2q-14 56 -16 153t2.5 174.5t14 194t11.5 149.5q2 47 26 71t60 25.5t72 -3.5t70 -12t44 -4q1 -3 1.5 -8.5t1 -21.5t-1 -29.5t-7.5 -30t-16 -27
t-28.5 -15.5t-43.5 -1q-7 1 -19 4t-18 4t-15 1t-13.5 -4.5t-10 -13t-9 -23.5t-5.5 -36q-18 -293 -15 -431q2 -34 8.5 -53.5t19 -24.5t21 -5t28.5 6t28 7z" />
    <glyph glyph-name="backslash" unicode="\" 
d="M509 91q5 -31 -14 -64.5t-40 -42.5q-36 -17 -79 39t-82.5 155t-75 202.5t-68 196.5t-50.5 121q3 2 7.5 5.5t18.5 10.5t28 10t34 -1t38 -17.5t38.5 -44t36.5 -75.5q13 -35 34 -95t35 -98t32.5 -88.5t32 -82.5t28 -63t26 -47.5t20.5 -20.5z" />
    <glyph glyph-name="bracketright" unicode="]" horiz-adv-x="334" 
d="M126 56q-34 6 -56 -5t-28.5 -31.5t-9 -41.5t-0.5 -36l3 -16q10 3 41.5 -5t66 -14.5t70.5 -5.5t64.5 27.5t40.5 79.5l-2 2q14 56 16.5 153t-2 174t-14 194t-11.5 150q-2 47 -26 71t-60 25.5t-72 -3.5t-70 -12t-44 -4q-1 -6 -2 -16.5t0.5 -36t9 -44t29.5 -30.5t56 -6
q7 1 22 4.5t20.5 4t16 -1.5t15 -10t9.5 -24t7 -41q19 -266 16 -431q-2 -34 -8.5 -53.5t-19 -24.5t-21 -5t-29 6t-28.5 7z" />
    <glyph glyph-name="asciicircum" unicode="^" 
d="M262 678q-51 -33 -86 -82.5t-36 -85.5q-1 -25 34.5 -39.5t48.5 -10.5q8 50 35 128q16 50 42 5q13 -23 41 -95q12 -32 40.5 -33t50.5 14l23 15q-2 2 -36 66t-75.5 103.5t-81.5 14.5z" />
    <glyph glyph-name="underscore" unicode="_" horiz-adv-x="354" 
d="M58 -45l-4 17q-3 50 100 61q58 6 147 -2q4 -37 -26 -54.5t-72 -17.5t-84 -1t-61 -3z" />
    <glyph glyph-name="grave" unicode="`" horiz-adv-x="261" 
d="M50 763l17 13q59 31 104 -61q23 -46 40 -120q-25 -20 -46.5 -16t-36.5 20.5t-28 43t-21.5 51t-16 45t-12.5 24.5z" />
    <glyph glyph-name="a" unicode="a" horiz-adv-x="518" 
d="M569 325h33q-4 -14 -12 -36.5t-36 -80t-60 -102t-85 -80.5t-110 -36q-37 0 -57.5 26.5t-24.5 63.5t-1 91q-70 -68 -148 -55q-49 9 -63 49t6.5 86t63.5 73q71 44 161 29q3 46 -2 67q4 1 10 2t23.5 1.5t33 -1.5t34 -10t31.5 -21.5t20.5 -38.5t4.5 -59q-15 -208 23 -209
q15 -1 37 24q40 45 69.5 99.5t39.5 86.5zM107 227q-2 -51 43 -36q36 13 74 54q4 38 7 57q-16 0 -32.5 -2.5t-39 -9t-37 -23t-15.5 -40.5z" />
    <glyph glyph-name="b" unicode="b" horiz-adv-x="392" 
d="M313 371q54 -7 48 -80q-6 -82 -75 -171q-70 -91 -159 -121q-21 -9 -45 -9q-32 -1 -51.5 37.5t-25 101.5t-5.5 141.5t7 158.5t11.5 153.5t8 124.5t-2.5 72q4 1 10 2t23.5 1.5t33 -1.5t34 -10t31.5 -21.5t20.5 -38.5t4.5 -59q-22 -296 -21 -452q16 46 34.5 82t50.5 65
t68 24zM173 69q66 46 108 146q34 82 16 111q-5 8 -14 9q-27 2 -54.5 -64.5t-41.5 -134.5z" />
    <glyph glyph-name="c" unicode="c" horiz-adv-x="378" 
d="M249 362q72 -23 31 -124q-7 0 -13.5 2.5t-8.5 5.5l-3 2q1 2 2 6t2 14t-0.5 17.5t-8.5 14t-20 7.5q-6 1 -10.5 0.5t-15 -6t-19 -16.5t-17.5 -34.5t-14 -56.5q-17 -106 42 -100q60 8 167 114q67 66 85 103l20 -16q-83 -155 -211 -231q-107 -63 -184 -38q-76 25 -73 125
q1 18 4 38q7 43 25 76t41 52t48.5 31.5t51 16t45.5 2.5t34 -5z" />
    <glyph glyph-name="d" unicode="d" horiz-adv-x="495" 
d="M535 295l24 -17q-48 -129 -128 -182q-62 -40 -140 -36q-37 2 -55.5 26t-18.5 58.5t5 75.5q-21 -38 -66.5 -65.5t-91.5 -16.5q-48 11 -60 52t11 86t67 69q74 40 162 19q10 77 15.5 183.5t5.5 165.5t-1 81q4 0 10 0.5t24 -1t34 -6t35 -15t31.5 -25.5t19 -41.5t2.5 -59.5
q-3 -27 -12 -92q-39 -269 -28 -343q9 -65 48 -39q36 24 62.5 54.5t35.5 49.5zM108 246q-3 -38 26 -37q34 2 71 49q19 25 31 56q-122 4 -128 -68z" />
    <glyph glyph-name="e" unicode="e" horiz-adv-x="388" 
d="M439 305l20 -16q-83 -155 -209 -237q-107 -70 -181 -47q-77 25 -68 145q1 16 4 33q9 51 32.5 88t52 55.5t61 27t57.5 8t42 -5.5q22 -7 36 -24.5t16 -45.5t-20 -63q-35 -57 -130 -54q-11 -99 43 -91q59 9 165 124q61 67 79 103zM232 301h-11t-15.5 -5.5t-18.5 -15.5
t-17 -32.5t-14 -53.5q74 -5 100 48q4 9 6 21.5t-5 25t-25 12.5z" />
    <glyph glyph-name="f" unicode="f" horiz-adv-x="319" 
d="M413 308l-5 -19l-182 39q17 -103 18.5 -188.5t-8 -139.5t-28.5 -95.5t-37.5 -61.5t-41.5 -33.5t-33 -16t-18 -3.5h-1v0q-43 1 -62 144.5t-15.5 328.5t9.5 322t9 162q10 99 20 120q12 23 35 22q33 0 70 -25q32 -21 52 -56q27 -42 36 -105q16 -108 -26 -188
q-16 -29 -40 -55q-13 -358 -4 -513q35 82 41.5 185t-4.5 164l-11 62q37 -5 93.5 -17.5t94.5 -22.5zM167 508q30 44 38 101v5q0 6 0.5 11.5t0 15t-1.5 19t-3 20.5t-4.5 21.5t-7.5 21t-11 19.5q-9 -176 -11 -234z" />
    <glyph glyph-name="g" unicode="g" horiz-adv-x="493" 
d="M607 343l9 -25q-98 -50 -208 -119q24 -314 16 -435q-12 -182 -82 -183q-12 -2 -27.5 -0.5t-48 14.5t-64 38t-71.5 79t-74 129q-58 115 204 302q-2 30 -2 46q-36 -36 -89 -62.5t-100 -18.5q-50 9 -64.5 50t6.5 88t65 75q43 27 98.5 33t72.5 -2q-4 51 -8 67q3 1 8.5 2
t21 2.5t30 -0.5t33 -10t32 -21.5t24 -40t13.5 -62.5l3 -53q49 28 99.5 55t76.5 39zM109 221q-1 -50 54 -35q50 15 91 58l2 2v1q-3 36 -4 54q-16 0 -35.5 -3t-45.5 -10t-43.5 -24.5t-18.5 -42.5zM263 -192q4 119 -1 290q-186 -147 -144 -229q41 -77 88 -104q46 -27 55 28
q2 7 2 15z" />
    <glyph glyph-name="h" unicode="h" horiz-adv-x="479" 
d="M544 288l19 -6q-3 -10 -9.5 -26t-26 -56.5t-39 -70.5t-46.5 -52.5t-52 -17.5q-29 6 -46 58t-22 111t-18 107t-35 48q-18 0 -28 -40t-17 -96.5t-19 -113t-43 -95.5t-80 -38q-32 -1 -51.5 37.5t-25 101.5t-5.5 141.5t7 158.5t11.5 153.5t8 124.5t-2.5 72q7 2 18.5 3.5
t40 -1t49.5 -13t37 -40t12 -75.5q-17 -222 -21 -372q38 179 111 179q39 0 60.5 -54.5t25.5 -120.5t13.5 -124t28.5 -63q23 -6 59 39t61 93z" />
    <glyph glyph-name="i" unicode="i" horiz-adv-x="265" 
d="M345 315l29 -11q-1 -1 -13.5 -29t-27 -58.5t-41 -69.5t-54.5 -68.5t-67 -49.5t-79 -19q-45 2 -67.5 36.5t-24 86t3.5 102.5t11.5 95t3.5 54q6 1 16 2.5t35.5 0t43.5 -9t31 -28.5t8 -54q-27 -183 9 -197q15 -6 41 12q32 22 67.5 73.5t55.5 91.5zM97 442q-31 0 -53 22
t-22 53t22 53t53 22t53 -22t22 -53t-22 -53t-53 -22z" />
    <glyph glyph-name="j" unicode="j" horiz-adv-x="291" 
d="M401 338l12 -30q-89 -44 -204 -125q23 -302 20 -413q-5 -228 -83 -229q-12 -2 -27.5 -0.5t-48 14.5t-64.5 38t-72 79t-74 129q-57 114 203 322l-11 189q-5 51 -9 67q3 1 8.5 2t21 2t30 -0.5t32.5 -9.5t32 -22t24.5 -40.5t13.5 -61.5q0 -4 0.5 -11.5t0.5 -11.5
q50 33 99 61t73 39zM66 -232q4 125 -1 303q-186 -160 -144 -242q41 -77 88 -104q46 -27 55 28q2 7 2 15zM100 444q-31 0 -53 22t-22 53t22 53t53 22t53 -22t22 -53t-22 -53t-53 -22z" />
    <glyph glyph-name="k" unicode="k" horiz-adv-x="415" 
d="M500 336l17 -9q-1 -6 -4 -16.5t-13.5 -40.5t-22 -57t-31 -60t-41 -57t-51 -40.5t-61.5 -16.5q-30 -2 -54 16.5t-33 38.5l-8 19q-34 -116 -117 -113q-32 -1 -51.5 37.5t-24.5 101.5t-5 141.5t6.5 158.5t11 153.5t8 124.5t-2.5 72q4 1 10 2t23.5 1.5t33 -1.5t34 -10
t31.5 -21.5t20.5 -38.5t5.5 -58q-17 -222 -21 -372q38 179 110 179q59 0 69 -58q12 -68 -45 -155q-27 -40 -65 -74v0q0 -10 1.5 -21.5t6.5 -35.5t21.5 -39t40.5 -15q37 0 71 27t56.5 66t40 78t25.5 66zM269 383q-18 0 -26 -30.5t-17 -93.5l-3 -24q61 82 63 127q0 21 -17 21z
" />
    <glyph glyph-name="l" unicode="l" horiz-adv-x="289" 
d="M121 8q-15 -7 -33 -7q-3 -1 -10 -1v0h-1q-91 1 -74 436q4 89 15 226q10 98 20 119q12 23 36 22q34 0 69 -24q29 -19 53 -56q26 -45 35 -105q17 -111 -26 -189q-18 -33 -44 -59q-5 -111 -3 -196q3 -48 11 -55.5t38 10.5q41 26 77.5 67.5t52.5 69.5l16 28l28 -11
q-3 -9 -26 -44.5t-57.5 -81.5t-83.5 -89.5t-93 -59.5zM163 417q34 47 42 107v6q0 5 0.5 10.5t0 15t-1.5 19t-3 20.5t-4.5 21.5t-7.5 21t-11 19.5q-10 -133 -15 -240z" />
    <glyph glyph-name="m" unicode="m" horiz-adv-x="688" 
d="M760 278l19 -4q-6 -12 -16.5 -32.5t-45 -73t-69.5 -92.5t-87 -73t-101 -33q-30 0 -44 24t-13.5 62.5t7 84t14.5 90.5t11.5 81.5t-5.5 56.5t-33 15l-1 -1q-15 -5 -28 -18q-16 -18 -25 -37q-10 -21 -18 -52q-7 -32 -12 -61q-1 -3 -2 -8.5t-1 -8.5q0 -2 -1 -5t-1 -4
q-2 -4 -2 -6q-2 -4 -4 -7l-5 -5q-1 -1 -2.5 -1t-2.5 -1l-2 -1h-2h-2q-6 0 -11 3q-2 1 -5 4q-3 4 -5 8t-2 6q-2 7 -4 19q-1 6 -2.5 18t-2.5 18l-3 35q-1 5 -2.5 16t-2.5 17q-8 26 -9 28t-3 4l-3 -3q-1 -2 -3.5 -6t-3.5 -6l-12 -27l-9 -28q-9 -28 -15 -54q-4 -17 -10.5 -44.5
t-8.5 -37.5q-2 -13 -5 -28q-19 -77 -89 -80q-41 -1 -59.5 33.5t-15.5 87t9 113.5t13.5 112t-0.5 83q3 1 9 2t22 2t30.5 -1.5t31.5 -11t29 -23t18.5 -42t4.5 -64.5q0 -10 -2 -26q2 4 4.5 11.5l3.5 10.5q7 17 15 32q8 14 11 17l8 8q5 5 13 9q4 2 9 2q2 0 3 1h1h1l2 -1h3
q10 -2 16 -6q7 -5 11 -11q1 -2 3 -5.5t3 -5.5q3 -7 7 -19q2 -7 4 -19q2 -13 4 -37t2 -35v-3q1 3 5 17.5t6 21.5q9 30 23 55q12 23 32 41q15 13 35 20l2 1h3q11 2 22.5 3.5t40 -2t48.5 -14.5t34.5 -40t11.5 -74q-2 -30 -8 -83q-10 -100 -2 -117q11 -21 59 18q41 33 80.5 80
t58.5 77zM233 346v-1v1zM233 345zM234 345zM277 196z" />
    <glyph glyph-name="n" unicode="n" horiz-adv-x="332" 
d="M415 316l21 -10q-44 -86 -62 -117q-15 -29 -31 -48q-14 -16 -23 -23q-1 -1 -3.5 -2.5t-3.5 -2.5t-4 -2t-4 -2q-1 0 -5 -2h-3l-1 -1h-4h-1h-1h-1h-3q-7 0 -12 4q-7 3 -10 10q-3 4 -8 22q-2 14 -2 39q1 25 5 73q2 24 2 35q0 22 -1 30q-1 4 -5 6q-3 2 -8 -3l-6 -6
q-7 -9 -14 -24q-5 -9 -13 -27q-15 -39 -19 -52q-13 -38 -24 -81l-9 -33q-20 -78 -87 -80q-41 -1 -59.5 31.5t-16 83t9 109.5t14 110t-0.5 86q3 1 9 2t22 2t30.5 -1.5t31.5 -12t29 -26t18.5 -46.5t4.5 -70v-5q52 90 92 89q28 -1 32 -44.5t-4 -80.5q0 -8 -2 -22v-6
q-2 -12 -4 -38q0 -23 1 -32q2 -8 3 -10l1 -1l1 -1h1h1v0l3 1h2h1q0 1 2 1q1 1 2 1q2 1 3 1l2 2q2 1 3 2q3 2 18 17q17 20 30 44z" />
    <glyph glyph-name="o" unicode="o" horiz-adv-x="390" 
d="M500 343l12 -21q-5 -4 -14 -10q-1 -1 -4 -2.5t-4 -2.5l-9 -6q-1 -1 -4.5 -3t-5.5 -3t-6 -4t-6 -4q-11 -5 -13 -7t-7 -4.5l-7 -3.5q-1 -1 -3.5 -2.5t-3.5 -1.5l-4 -2q-1 0 -2 -1t-2 -1q-4 -1 -8 -4q-4 -1 -8 -4q-11 -5 -35 -15q-15 -6 -37 -13q-3 -1 -8.5 -2.5t-7.5 -1.5
q-3 -18 -9 -36q-25 -78 -85 -119.5t-121 -22.5t-86 87.5t0 147.5q25 78 85 119.5t121 22.5q41 -13 67 -52.5t30 -91.5h3q25 5 34 7q8 1 33 9q6 2 8 3q6 2 8 2l4 2q1 0 2 0.5t2 0.5q1 1 3.5 2t3.5 1l15 6q6 2 13 5q8 4 12 5q8 4 11 5q1 1 4.5 2.5t4.5 2.5l9 3zM248 322
q-19 6 -43 -12q2 -4 8 -10q8 -8 17 -12q5 -4 11 -5q12 -3 13 -3q12 -3 24 -3q-7 38 -30 45zM174 90q25 -8 53 20.5t43 76.5q4 12 8 32q-20 -2 -31 -1q-2 0 -6.5 0.5t-8 1t-6.5 1.5q-7 1 -21 5q-17 5 -35 18q-6 4 -8 6l-10 -25q-15 -48 -8.5 -87.5t30.5 -47.5z" />
    <glyph glyph-name="p" unicode="p" horiz-adv-x="370" 
d="M307 372q54 -7 48 -80q-7 -81 -75 -170q-52 -68 -117 -103q-11 -270 15 -286q-20 -70 -96 -73q-32 -1 -51.5 37.5t-25 101.5t-5.5 141.5t7 158.5t11.5 153.5t8 124.5t-2.5 72q4 1 10 2t23.5 1.5t33 -1.5t34 -10t31.5 -21.5t20.5 -38.5t4.5 -59q0 -5 -1.5 -26.5
t-2.5 -34.5q57 121 130 111zM166 71l-1 1v-2q67 45 108 145q34 82 17 112q-4 9 -14 10q-27 2 -54.5 -64.5t-41.5 -134.5z" />
    <glyph glyph-name="q" unicode="q" horiz-adv-x="450" 
d="M499 332l-125 -171q18 -92 20 -171.5t-10 -133t-27 -87.5t-32 -54q-15 -19 -34 -27q-6 -3 -21 -6q-16 -2 -21 -2q-24 0 -41 19t-25 57.5t-11.5 81.5t-2 103.5t4.5 109.5t9 114q-39 -35 -92 -38q-50 -2 -72.5 34t-13 85t45.5 85q56 55 149 63q0 34 -3 49q7 2 18.5 3.5
t40 -1.5t49.5 -14.5t36.5 -44t11.5 -82.5q-1 -17 -4.5 -62.5t-5.5 -72.5l143 176zM104 243q4 -19 13 -26.5t21 -4t25.5 13t26.5 24.5q6 70 7 92q-40 -12 -70 -36.5t-23 -62.5zM329 -150q23 60 27.5 130t-1 107.5t-13.5 68.5q-15 -209 -13 -306z" />
    <glyph glyph-name="r" unicode="r" horiz-adv-x="430" 
d="M497 291l22 1q14 -3 10 -16q0 -1 -7 -25t-15 -52t-23 -68.5t-31.5 -77.5t-40.5 -75t-49.5 -65t-58.5 -43.5t-68 -14.5q-27 1 -45 17.5t-25 45.5t-9 62t2.5 77t9.5 79.5t11.5 79.5t9.5 68q-63 1 -99.5 11.5t-46.5 26.5t-12.5 36t2 41.5t-3.5 42.5q6 3 15.5 6t34 7t43 0
t32 -23t10.5 -55q-2 -26 43 -26q16 1 32 0t38 -8.5t36.5 -21.5t23.5 -41.5t4 -64.5q-24 -184 -22 -224q2 -76 52 -22q35 37 66.5 117.5t45.5 142.5z" />
    <glyph glyph-name="s" unicode="s" horiz-adv-x="362" 
d="M425 276l4 -24l-17 8.5t-41.5 16.5t-57.5 15.5t-58.5 0.5t-51.5 -22q11 -17 31.5 -46.5t33 -48t30 -46t26.5 -46t18.5 -42t10 -41t-3 -35.5t-16 -33t-32.5 -27q-71 -34 -120 -23h-1q-3 0 -4 1q-13 2 -25 7q-14 4 -35 17q-23 15 -38 34q-19 24 -28 54q0 2 -0.5 4.5
t-0.5 3.5l-1 2v2l-1 4l-1 3v4q-1 3 -1 8q-3 15 -3 32q0 36 8 67q9 31 26 63q0 1 1 1l1 2q-16 22 -33 48q-28 44 -38.5 81.5t-5 62.5t19 45t32.5 31.5t35.5 19.5t28.5 10l12 3q-26 -63 53 -190q31 17 67.5 20.5t66 -3.5t55 -17t39.5 -19zM117 -26q9 -10 27 -22l6 -3
q34 -12 42 14q8 27 -2.5 58.5t-26.5 55.5t-49 68q-5 6 -7 9q-8 -17 -13 -39q-6 -29 -5 -55q1 -8 3 -26q1 -3 2 -8t2 -9t2 -7q5 -19 19 -36z" />
    <glyph glyph-name="t" unicode="t" horiz-adv-x="460" 
d="M501 322l22 -16q-3 -8 -8 -20.5t-22.5 -50t-36.5 -71t-48.5 -74t-60 -69t-70.5 -46.5t-80 -15q-24 1 -41 24t-25.5 67.5t-13 92.5t-3.5 116.5t3 121.5t6 124q-6 0 -17 -0.5t-16 -1.5q-22 0 -32 -1h-47h-14h-4l-3 31q2 0 5 1q1 0 13 2q5 1 12 2l17.5 2.5l17.5 2.5
q3 0 14 1.5t17 2.5q11 2 35 4q2 1 4 1q13 198 5 228q4 1 10 2t23.5 1.5t33 -1.5t34 -10t31.5 -21.5t20.5 -38.5t4.5 -59q-1 -18 -5 -88q4 0 14 0.5t14 0.5q11 1 31 1q5 0 14 0.5t13 0.5h21h18l2 -31q-6 -2 -17 -4q-9 -2 -21 -3q-4 0 -12.5 -1.5t-13.5 -2.5q-5 0 -15.5 -1.5
t-16.5 -2.5q-4 0 -15.5 -1.5t-17.5 -2.5q-4 -79 -6 -174q1 -182 3 -205q7 -82 35 -81q13 0 30 14q29 24 69 86t65 113z" />
    <glyph glyph-name="u" unicode="u" horiz-adv-x="490" 
d="M539 328l22 2q15 -1 11 -15q0 -1 -5 -22.5t-10.5 -44t-17.5 -56.5t-25 -64t-33.5 -62t-43.5 -54.5t-54.5 -37t-66.5 -14.5q-96 0 -94 168q-51 -79 -130 -75q-45 2 -67.5 36.5t-24 86t3.5 102.5t11.5 95t3.5 54q6 1 16 2.5t35.5 0t43.5 -9t31 -28.5t8 -54
q-26 -183 -3 -202q14 -11 46 22q31 32 44.5 90t11.5 100l-2 42q4 1 10 2t23.5 1.5t33 -1.5t34.5 -10t31.5 -21.5t20.5 -38.5t5 -59q-2 -27 -7 -75q-11 -119 -2 -135q11 -17 48 26q33 39 56 101.5t29 105.5z" />
    <glyph glyph-name="v" unicode="v" horiz-adv-x="411" 
d="M488 312l20 -6q0 -2 -1 -6t-5 -15t-10 -19t-17.5 -19.5t-27 -15t-38 -6t-51.5 6.5q-12 -48 -26 -82q-17 -40 -39 -71q-21 -29 -47 -52q-19 -16 -39 -28q-32 -20 -78 -28q-44 -7 -72 23.5t-38.5 88t-14 110.5t-3.5 115t-1 78q7 3 18 6t39.5 5t51 -5t43 -34.5t23.5 -73.5
q11 -145 26 -193q17 15 32 33q21 26 35 55q16 32 28 71q0 2 2 8q-7 3 -37 22q-19 14 -33 29q-16 17 -27 42q-3 8 -5 27q0 13 5 30q10 28 38 44q27 17 60 13q16 -3 31 -12q12 -8 23 -23q7 -10 14 -28l6 -27q1 -9 1 -26v-13q-1 -5 -1 -12q-3 -32 -9 -62q4 -2 11 -4.5t25.5 -6
t33.5 -0.5t31 18t23 43zM283 310q16 -12 24 -17q1 5 3.5 18t3.5 20q0 2 0.5 5.5t0.5 4.5q1 3 1 10q2 9 0 18q0 20 -8 31q-6 12 -18 15t-27 -4q-14 -8 -20 -20q-5 -11 -2 -27q4 -15 17 -29q9 -12 25 -25z" />
    <glyph glyph-name="w" unicode="w" horiz-adv-x="680" 
d="M745 332l20 -6q-1 -3 -2 -7t-6 -17t-12 -22.5t-19.5 -23t-28.5 -19t-38.5 -10t-50.5 3.5q-7 -45 -17 -75q-13 -40 -29 -66q-16 -28 -38 -50q-13 -15 -31 -27q-28 -20 -67 -31q-29 -7 -52 6t-37.5 42t-23.5 61.5t-15 75.5q-55 -136 -179 -151q-44 -6 -69 26.5t-31 88
t-6.5 113.5t-2 114t-10.5 78l9 3t23.5 4.5t33.5 2.5t35.5 -5.5t34 -17.5t25 -36t12.5 -58q1 -29 3 -81q3 -116 14 -130q12 -15 44 33q36 55 54 112q-6 65 -8 77q6 3 15.5 6.5t34.5 7.5t45.5 -0.5t40.5 -27t26 -63.5q19 -125 37 -169q13 11 27 32q15 21 27 51q13 35 18 64
q0 1 0.5 4t1.5 4q-25 12 -34 17q-19 10 -32 22q-18 16 -26 35q-5 11 -7 25q-1 11 2 26q8 27 31 42q23 18 51 15q15 0 28 -8q12 -5 23 -18q7 -10 14 -23q3 -8 7 -24q3 -12 3 -23q1 -4 1 -12v-10q0 -28 -3 -55q4 -1 11.5 -2t28 -0.5t37 6.5t33.5 24t24 46zM562 324v8
q0 11 -1 17q-4 18 -9 26q-8 11 -18 12q-12 2 -24 -6q-11 -6 -16 -19q-3 -12 1 -24q4 -11 16 -25q16 -14 25 -20l22 -13q0 1 1.5 14.5t1.5 20.5q1 2 1 9z" />
    <glyph glyph-name="x" unicode="x" horiz-adv-x="423" 
d="M406 442l17 -23l-19 -15l-21 -18l-27 -24q-10 -9 -31 -30l-34 -34l-35 -37l-2 -2q11 -28 22.5 -58.5t16 -42.5t11 -24t12.5 -16.5t17 -6.5q14 -51 1 -72t-42 -29q-77 -14 -144 127q-18 -22 -26 -33l-27 -33l-22 -29q-16 -21 -17 -22l-15 -20l-41 32l16 19q13 16 18 22
l24 28q4 5 13.5 16t14.5 17q11 13 33 37q3 3 9 11q-10 25 -31.5 83t-36.5 91.5t-30 52.5q4 4 12 10.5t31.5 15t45.5 6t51 -28.5t52 -77q2 -4 16 -38l8.5 8.5l10 10l8.5 8.5q8 7 21 19.5t15 13.5l33 29q24 20 29 24q15 12 23 17z" />
    <glyph glyph-name="y" unicode="y" horiz-adv-x="517" 
d="M596 320l20 -12l-172 -218q26 -109 32 -196t-2.5 -134.5t-26.5 -81t-31 -44.5t-24 -15q-15 -7 -36 -9q-39 -3 -62.5 53t-29.5 142t-8.5 187t1.5 188q-54 -153 -165 -149q-45 2 -67.5 37t-24 86.5t3.5 102.5t11.5 95t3.5 54q3 1 8.5 1.5t21 1t29 -1t29.5 -7t27 -15
t16.5 -27t2.5 -41.5q-26 -183 -3 -202q14 -11 46 22q56 57 56 191l-2 40v0l10 2.5t23 3t33 0.5t35 -8.5t32.5 -21.5t23 -40.5t8.5 -63.5q0 -18 -0.5 -64t-0.5 -72q50 54 95.5 108t66.5 81zM424 -218q20 62 19.5 132t-9.5 107t-20 68q-2 -203 10 -307z" />
    <glyph glyph-name="z" unicode="z" horiz-adv-x="384" 
d="M221 155q144 -74 142 -244q-1 -51 -13.5 -90t-30 -60.5t-41.5 -35.5t-42.5 -19t-37.5 -6q-131 -5 -230 208q-45 93 165 230l-23 23l-5 28q5 2 13 5t29.5 14.5t40.5 24t39 32t31 39.5q26 48 -8 47q-30 0 -148 -52q-41 -18 -66 5t-30 54l-5 32q9 0 43.5 15t75.5 31
t83.5 26.5t76 -0.5t43.5 -48q38 -137 -169 -233q17 -4 32 -10q64 38 140.5 75t121.5 56l44 18l7 -22q-147 -63 -278 -143zM206 -141q38 128 -52 253q-157 -112 -124 -179q31 -61 84 -94q60 -37 85 4q4 7 7 16z" />
    <glyph glyph-name="braceleft" unicode="{" horiz-adv-x="448" 
d="M373 150q15 -188 19 -210q9 -53 38 -64q7 -3 18 -4q-4 -3 -10.5 -7.5t-25 -15t-36 -15.5t-39 -3t-37.5 14.5t-28 45t-15 82.5q-5 92 -20.5 157.5t-35.5 95.5t-38.5 45.5t-34 22t-17.5 11.5q-1 1 -1 3v0q0 2 1 3q2 5 17.5 11.5t34 22.5t38.5 46t35.5 95t20.5 157
q3 50 15 82.5t29 44.5t37 15t39 -3.5t35 -14.5t26 -15l10 -8q-37 -4 -49 -40q-11 -30 -21 -178q-3 -35 -5 -60q-8 -113 -95 -158q87 -44 95 -158z" />
    <glyph glyph-name="bar" unicode="|" 
d="M364 -57q-7 -29 -37 -50.5t-54 -22.5q-29 -1 -46.5 41t-22 110.5t-4 155.5t6.5 175.5t10.5 171t8 141.5t-2.5 87q3 1 8.5 2.5t21.5 2t30 -2t31 -13t28.5 -29t18 -51.5t4.5 -78q-7 -125 -10 -195.5t-7 -188t0 -181.5t16 -75z" />
    <glyph glyph-name="braceright" unicode="}" horiz-adv-x="338" 
d="M75 140q-14 -187 -19 -214q-10 -51 -40 -61q-7 -2 -16 -3q4 -3 10.5 -7.5t25 -15t36 -15.5t39 -3t38 14.5t28.5 45t15 82.5q5 92 20.5 157.5t35 95.5t38 45.5t34 22t17.5 11.5q1 1 1 3v0q0 2 -1 3q-2 5 -17.5 11.5t-34 22.5t-38 46t-35 95t-20.5 157q-3 50 -15 82.5
t-29 44.5t-37 15t-39.5 -3.5t-35.5 -14.5t-26 -15l-10 -8q37 -4 49 -40q12 -31 22 -182q2 -33 4 -56q9 -112 95 -158q-86 -44 -95 -158z" />
    <glyph glyph-name="asciitilde" unicode="~" 
d="M139 237q-3 59 15.5 89.5t48.5 32.5t67.5 -4t71.5 -16.5t63 -9.5t39 21q-9 -61 -29.5 -89.5t-45.5 -28t-56 9t-60 20t-60.5 7t-53.5 -31.5z" />
    <glyph glyph-name="section" unicode="&#xa7;" 
d="M564 368q10 -10 15 -20.5t3 -21.5t-3.5 -19t-12 -19t-15.5 -17t-20 -17.5t-19.5 -15t-20.5 -14.5q35 -60 -21 -178q-10 -20 -23 -40q-39 -57 -91 -76q-51 -17 -90.5 -6t-55.5 44q-10 22 -13 53t-1 51l3 21l30 5v-24t6.5 -39t19.5 -28q35 -8 70 51q30 55 33.5 93t-15 57
t-48 30t-68.5 14.5t-74.5 6.5t-67.5 10.5t-46 22.5q-13 13 -17.5 27t1.5 28t12 24t23.5 24.5t25.5 20.5t28 20q-37 58 20 177q18 33 24 41q38 57 91 75q51 17 90.5 6t55.5 -44q10 -22 12.5 -53t0.5 -51l-3 -20l-29 -6v24t-6.5 39t-19.5 28q-38 8 -71 -51q-30 -55 -33.5 -93
t15 -57t48 -29.5t68.5 -14.5t75 -6.5t68 -10t46 -22.5zM151 306q29 -8 115 -12.5t125 -12.5q3 3 9 6q66 41 67 54q0 8 -16 13q-29 8 -114 12.5t-125 12.5l-9 -6q-68 -41 -67 -55q0 -8 15 -12z" />
    <glyph glyph-name="plusminus" unicode="&#xb1;" 
d="M104 -28l-6 17q-5 40 60 60q98 30 339 5q12 -36 -20 -56t-86.5 -23.5t-116 -4.5t-108 3t-62.5 -1zM505 381q15 -42 -31 -61t-133 -23q0 -22 -1 -53.5t-1.5 -49.5t0 -35t2.5 -23l-16 -6q-40 -6 -60 59q-13 41 -17 108q-155 2 -162 0l-6 16q-5 39 59 60q40 13 107 17
q1 62 11 165q29 10 47.5 -12t26 -59.5t9.5 -92.5q75 -2 165 -10z" />
    </font>
</defs>
</svg>
